Netflix Download does not have a high bit rate

Discussion in 'AnyStream' started by xijie123, Nov 14, 2020.

Tags:
Thread Status:
Not open for further replies.
  1. xijie123

    xijie123 New Member

    This one was downloaded with AnyStream Beta 1.0.6.1
    Video
    ID : 1
    Format : AVC
    Format/Info : Advanced Video Codec
    Format profile : High@L4
    Format settings, CABAC : Yes
    Format settings, ReFrames : 4 frames
    Codec ID : avc1
    Codec ID/Info : Advanced Video Coding
    Duration : 1h 21mn
    Bit rate mode : Variable
    Bit rate : 1 715 Kbps
    Maximum bit rate : 20.0 Mbps
    Width : 1 920 pixels
    Height : 1 080 pixels
    Display aspect ratio : 16:9
    Frame rate mode : Constant
    Frame rate : 24.000 fps
    Color space : YUV
    Chroma subsampling : 4:2:0
    Bit depth : 8 bits
    Scan type : Progressive
    Bits/(Pixel*Frame) : 0.034
    Stream size : 1 003 MiB (73%)
    Writing library : x264 core 148 r2722 1b0121b
    Encoding settings : cabac=1 / ref=4 / deblock=1:0:0 / analyse=0x3:0x111 / me=umh / subme=10 / psy=1 / psy_rd=1.00:0.00 / mixed_ref=1 / me_range=120 / chroma_me=1 / trellis=2 / 8x8dct=1 / cqm=0 / deadzone=21,11 / fast_pskip=1 / chroma_qp_offset=-2 / threads=6 / lookahead_threads=1 / sliced_threads=0 / nr=0 / decimate=1 / interlaced=0 / bluray_compat=0 / stitchable=1 / constrained_intra=0 / bframes=16 / b_pyramid=2 / b_adapt=2 / b_bias=0 / direct=3 / weightb=1 / open_gop=0 / weightp=2 / keyint=240 / keyint_min=121 / scenecut=0 / intra_refresh=0 / rc_lookahead=240 / rc=crf / mbtree=1 / crf=24.0 / qcomp=0.50 / qpmin=6 / qpmax=51 / qpstep=4 / vbv_maxrate=20000 / vbv_bufsize=25000 / crf_max=0.0 / nal_hrd=vbr / filler=0 / ip_ratio=1.40 / aq=1:0.80
    Encoded date : UTC 2020-11-14 17:00:37
    Tagged date : UTC 2020-11-14 17:00:37

    Audio
    ID : 2
    Format : E-AC-3
    Format/Info : Audio Coding 3
    Format settings, Endianness : Big
    Codec ID : ec-3
    Duration : 1h 20mn
    Bit rate mode : Constant
    Bit rate : 640 Kbps
    Channel(s) : 6 channels
    Channel positions : Front: L C R, Side: L R, LFE
    Sampling rate : 48.0 KHz
    Frame rate : 187.500 fps (256 spf)
    Bit depth : 16 bits
    Compression mode : Lossy
    Stream size : 370 MiB (27%)
    Encoded date : UTC 2020-11-14 17:00:37
    Tagged date : UTC 2020-11-14 17:00:37



    This one is Girls.Revenge.2020.CHINESE.1080p.NF.WEBRip.DDP5.1.x264-tG1R0[/COLOR]

    **edit** RARBG torrent hotlink removed - Ch3vr0n **edit**

    Video
    ID : 1
    Format : AVC
    Format/Info : Advanced Video Codec
    Format profile : Main@L4
    Format settings : CABAC / 3 Ref Frames
    Format settings, CABAC : Yes
    Format settings, Reference frames : 3 frames
    Codec ID : V_MPEG4/ISO/AVC
    Duration : 1 h 21 min
    Bit rate mode : Variable
    Bit rate : 4 220 kb/s
    Maximum bit rate : 6 330 kb/s
    Width : 1 920 pixels
    Height : 1 080 pixels
    Display aspect ratio : 16:9
    Frame rate mode : Constant
    Frame rate : 24.000 FPS
    Color space : YUV
    Chroma subsampling : 4:2:0
    Bit depth : 8 bits
    Scan type : Progressive
    Bits/(Pixel*Frame) : 0.085
    Stream size : 2.40 GiB (87%)
    Title : Girl\'s Revenge (2020) [Netflix] - tt13388018
    Writing library : x264 core 148 r2722 1b0121b
    Encoding settings : cabac=1 / ref=3 / deblock=1:0:0 / analyse=0x1:0x111 / me=umh / subme=10 / psy=1 / psy_rd=1.00:0.00 / mixed_ref=1 / me_range=24 / chroma_me=1 / trellis=2 / 8x8dct=0 / cqm=0 / deadzone=21,11 / fast_pskip=1 / chroma_qp_offset=-2 / threads=8 / lookahead_threads=1 / sliced_threads=0 / nr=0 / decimate=1 / interlaced=0 / bluray_compat=0 / stitchable=1 / constrained_intra=0 / bframes=2 / b_pyramid=0 / b_adapt=2 / b_bias=0 / direct=3 / weightb=1 / open_gop=0 / weightp=2 / keyint=250 / keyint_min=24 / scenecut=0 / intra_refresh=0 / rc_lookahead=48 / rc=2pass / mbtree=1 / bitrate=4220 / ratetol=1.0 / qcomp=0.50 / qpmin=6 / qpmax=51 / qpstep=4 / cplxblur=20.0 / qblur=0.5 / vbv_maxrate=6330 / vbv_bufsize=8440 / nal_hrd=vbr / filler=0 / ip_ratio=1.40 / aq=1:1.00
    Language : Chinese
    Default : Yes
    Forced : No

    Audio
    ID : 2
    Format : E-AC-3
    Format/Info : Enhanced AC-3
    Commercial name : Dolby Digital Plus
    Codec ID : A_EAC3
    Duration : 1 h 21 min
    Bit rate mode : Constant
    Bit rate : 640 kb/s
    Channel(s) : 6 channels
    Channel layout : L R C LFE Ls Rs
    Sampling rate : 48.0 kHz
    Frame rate : 31.250 FPS (1536 SPF)
    Compression mode : Lossy
    Stream size : 374 MiB (13%)
    Title : Mandarin (Guoyu)
    Language : Chinese
    Service kind : Complete Main
    Default : Yes
    Forced : No


    Video bit rate 1 715 Kbps VS 4220 kbps ,why? The account is UHD with the highest video quality,AnyStream Beta 1.0.6.1 VIDEO Select 1080P with no bitrate options, The audio options are pretty good,I have obtained a permanent right of use,Thanks for making such a good product, I hope the video quality can have options to choose high bit rate.
     
    Last edited by a moderator: Nov 14, 2020
  2. Ch3vr0n

    Ch3vr0n Translator NL & Mod

    Post locked - Blatant piracy. Even the torrent file was hotlinked (hotlink removed). I strongly suggest you re-read the forum rules. This post isn't the best 1 post you could make. What the "warez scene" does and how they do it is irrelevant to how anystream does things. There's no telling what tools they use or how they use it, nor does RedFox have any interest in that.
     
    whatever_gong82 likes this.
Thread Status:
Not open for further replies.