Problème de conversion en multi-passes

Discussion in 'CloneDVD mobile (fr)' started by bblinkfan, Jan 6, 2011.

  1. bblinkfan

    bblinkfan Member

    Bonsoir,

    j'utilise clone DVD mobile pour effetuer le transcodage d'une série (kaamelott saison 6) épisode par épisode.
    a ce jour, j'ai trouvé un profil sur le forum slysoft pour avoir un flux divx/AC3, cependant, il m'est impossible de finaliser les fichiers étant donné que le multipassing crash avant la fin du transcodage.
    que faire?

    D'avance merci

    bblinkfan
     
  2. pseudo555

    pseudo555 Moderator (fr)

    Quel version de clonedvd mobile essaye tu ?
    As tu tester la dernière beta (1.7.1.2) ?
     
  3. bblinkfan

    bblinkfan Member

    merci de ta réponse rapide

    j'ai essayé la derniere version stable et la derniere version beta, le résultat étant le même
    la première passe d'encodage se réalise mais il semble y avoir blocage entre la 2e et la 3e.

    en revanche, la division par chapitres semble résoudre ce problème, mais il s'agit d'avoir chaque épisode en un seul fichier...
     
  4. pseudo555

    pseudo555 Moderator (fr)

    Peut tu retester avec le profil générique divx ?
     
  5. bblinkfan

    bblinkfan Member

    le profil générique divx fonctionne avec les 3 passes mais le son est en .mp3 et non AC3.
    le défaut doit donc venir du profil divx/AC3 ci dessous

    [* Generic (DivX) lossless]
    Res1=320x240
    Res2=480x360
    Res3=640x480
    Res4=720x540
    ResAna1=320x180
    ResAna2=480x270
    ResAna3=640x360
    ResAna4=720x404
    ResAna5=852x480
    AllowNativeTVResolution=1
    VTag=DIVX
    lavcopts=vcodec=mpeg4:acodec=copy
    Format=avi -noodml
    FileType=avi
    Quality=23
    useMencoder=1
    SubTitle=1

    que faire pour le réaliser en 3 passes?

    a propos, existe-t-il un profil H264/AC3 (conteneur AVI)?
     
    Last edited: Jan 6, 2011
  6. bblinkfan

    bblinkfan Member

    Problèmes identiques avec les versions:
    1.7.1.0
    1.7.1.1
    1.7.1.2

    et les profils:

    [* Generic (DivX) lossless]
    Res1=320x240
    Res2=480x360
    Res3=640x480
    Res4=720x540
    ResAna1=320x180
    ResAna2=480x270
    ResAna3=640x360
    ResAna4=720x404
    ResAna5=852x480
    AllowNativeTVResolution=1
    VTag=DIVX
    lavcopts=vcodec=mpeg4:acodec=copy
    Format=avi -noodml
    FileType=avi
    Quality=23
    useMencoder=1
    SubTitle=1

    Les encodages bloquent entre la 2e et la 3e passe....
     
    Last edited: Jan 7, 2011
  7. pseudo555

    pseudo555 Moderator (fr)

    A ma connaissance non, vu que tous les codecs viennent de ffmpeg.

    As tu un log/message d'erreur ?
     
  8. bblinkfan

    bblinkfan Member

    voila chef!

    DEBUG: Feeding ffmpeg.exe with 'ffmpeg.exe -i - -v 9 -xerror -pass 2 -passlogfile "C:/Users/Clément/Videos/Kaamelott/Livre VI/mencmpass7344" -threads 2 -f avi -vtag DIVX -fflags +noodml -metadata title="Kaamelott - Livre VI - Tome I - Episode I - Miles Ignotus" -r 25 -vcodec mpeg4 -vb 2835000 -acodec copy -ab 64000 -s 720x576 -aspect 16:9 -deinterlace -y "C:\Users\Clément\Videos\Kaamelott\Livre VI\Kaamelott - Livre VI - Tome I - Episode I - Miles Ignotus.avi"'.
    FFmpeg version from svn, Copyright (c) 2000-2008 Fabrice Bellard, et al.

    NOTICE: This app contains changes made by SlySoft Inc. in compliance with GPL.
    All changes are available as patches from http://oss.slysoft.com

    This file was digitally signed by SlySoft Inc.

    FFmpeg maintainers receive SlySoft products free of charge. If you're
    interested then please contact us at support@slysoft.com


    Seems stream 0 codec frame rate differs from container frame rate: 50.00 (50/1) -> 25.00 (25/1)
    Input #0, cham, from 'pipe:':
    Duration: N/A, start: 0.000000, bitrate: 8948 kb/s
    Stream #0.0: Video: mpeg2video, yuv420p, 720x576 [PAR 64:45 DAR 16:9], 8500 kb/s, 25 tbr, 90k tbn, 50 tbc
    Stream #0.1: Audio: ac3, 48000 Hz, 5.1, s16, 448 kb/s
    [NULL @ 00396d10]Unknown option 'vb'
    [swscaler @ 00397ca0]Unknown option 'vb'
    [avi @ 00d6a270]switching to no-odml mode
    Output #0, avi, to 'C:\Users\Clément\Videos\Kaamelott\Livre VI\Kaamelott - Livre VI - Tome I - Episode I - Miles Ignotus.avi':
    Stream #0.0: Video: mpeg4, yuv420p, 720x576 [PAR 64:45 DAR 16:9], q=2-31, pass 2, 2835 kb/s, 25 tbn, 25 tbc
    Stream #0.1: Audio: 0x2000, 48000 Hz, 5.1, s16, 448 kb/s
    Stream mapping:
    Stream #0.0 -> #0.0
    Stream #0.1 -> #0.1
    [NULL @ 00d6b200]error, non monotone timestamps 1792 >= 0
    av_interleaved_write_frame(): Error while opening file
    This is Chameleon transcoder engine 0.9.12.27 [1.7.1.3] (12/27/2010)
    CLOCK RESET: Video, STC = 0, DTS = 22254
    CLOCK RESET: Audio AC3, STC = 0, PTS = 115854
    ----- NEW SEGMENT -----
    Segment Start: 1, Video:25854 Audio:115854 => 90000 (1000 ms)
    > Audio ++ :: - 2880 = 112974 (87120)
    > Audio ++ :: - 2880 = 110094 (84240)
    > Audio ++ :: - 2880 = 107214 (81360)
    > Audio ++ :: - 2880 = 104334 (78480)
    > Audio ++ :: - 2880 = 101454 (75600)
    > Audio ++ :: - 2880 = 98574 (72720)
    > Audio ++ :: - 2880 = 95694 (69840)
    > Audio ++ :: - 2880 = 92814 (66960)
    > Audio ++ :: - 2880 = 89934 (64080)
    > Audio ++ :: - 2880 = 87054 (61200)
    > Audio ++ :: - 2880 = 84174 (58320)
    > Audio ++ :: - 2880 = 81294 (55440)
    > Audio ++ :: - 2880 = 78414 (52560)
    > Audio ++ :: - 2880 = 75534 (49680)
    > Audio ++ :: - 2880 = 72654 (46800)
    > Audio ++ :: - 2880 = 69774 (43920)
    > Audio ++ :: - 2880 = 66894 (41040)
    > Audio ++ :: - 2880 = 64014 (38160)
    > Audio ++ :: - 2880 = 61134 (35280)
    > Audio ++ :: - 2880 = 58254 (32400)
    > Audio ++ :: - 2880 = 55374 (29520)
    > Audio ++ :: - 2880 = 52494 (26640)
    > Audio ++ :: - 2880 = 49614 (23760)
    > Audio ++ :: - 2880 = 46734 (20880)
    > Audio ++ :: - 2880 = 43854 (18000)
    > Audio ++ :: - 2880 = 40974 (15120)
    > Audio ++ :: - 2880 = 38094 (12240)
    > Audio ++ :: - 2880 = 35214 (9360)
    > Audio ++ :: - 2880 = 32334 (6480)
    > Audio ++ :: - 2880 = 29454 (3600)
    > Audio ++ :: - 2880 = 26574 (720)
    > Synchronized :: 25854 / 26574 => 720 = 8 ms
    Segment 1 > Video 0 > 0 / 25854 -> 29454 / 25854
    Segment 1 > Audio 0 > 0 / 26574 -> 29454 / 26574
    Segment 1 > Video 1 > 3600 / 29454 -> 33054 / 25854
    Segment 1 > Video 2 > 7200 / 33054 -> 36654 / 25854
    Segment 1 > Video 3 > 10800 / 36654 -> 40254 / 25854
    Segment 1 > Video 4 > 14400 / 40254 -> 43854 / 25854
    > Video is looking fine and synchronous, suppressing output
    Segment 1 > Audio 1 > 2880 / 118734 -> 121614 / 115854
    Segment 1 > Audio 2 > 5760 / 121614 -> 124494 / 115854
    Segment 1 > Audio 3 > 8640 / 124494 -> 127374 / 115854
    Segment 1 > Audio 4 > 11520 / 127374 -> 130254 / 115854
    Segment 1 > Audio 5 > 14400 / 130254 -> 133134 / 115854
    > Audio is looking fine and synchronous, suppressing output
    >>> QueueSend, #506 : ffmpeg terminated

    C'est grave docteur?
     
  9. Lynx

    Lynx Moderator (fr)

    Bonjour,

    Si je peux y ajouter mon expérience, je viens d'encoder en 3 passes avec la derniere beta sans soucis. Le film était SALT.

    J'ai analysé le log posté plus haut, et j'en viens à ceci :

    Ce que je conseille, c'est de faire une désinstallation de ce logiciel, puis supprimer le dossier de clownDVDMobile qui se trouve dans C:\programmes sous Win7 ou c:\program Files sous XP et de le réinstaller de façon propre. Je pense qu'il peut y avoir un fichier d'une ancienne version qui pourrait être resté et qui provoque ce problème que l'on a connu dans des précédentes versions.

    Voilà, c'est mon idée, à voir...

    Amicalement
    Lynx
     
  10. bblinkfan

    bblinkfan Member

    Merci pour l'idée, mais j'ai réessayé ce matin avec une installation "propre", et rien nechange, le passage de la 2e à la 3e passe provoque toujours une erreur...
     
  11. pseudo555

    pseudo555 Moderator (fr)

  12. Lynx

    Lynx Moderator (fr)

    ok, alors essaies ceci :

    Crée un dossier à la racine de C: qui ne comporte ni espace, ni accents. c:\film me semble bien.

    Ensuite fais ton ripp en lui donnant un nom court à lui aussi.

    Peut-être que ceci peut résoudre ce problème...

    Amicalement
    Lynx
     
  13. bblinkfan

    bblinkfan Member

    Merci pour le déplacement du sujet en partie anglaise!

    je suis en train de tester la proposition de Lynx, je vous tiens au courant d'ici quelques minutes pour savoir ce qu'il en est
     
  14. bblinkfan

    bblinkfan Member

    même erreur au même endroit:

    DEBUG: Feeding ffmpeg.exe with 'ffmpeg.exe -i - -v 9 -xerror -pass 2 -passlogfile "C:/FILM/mencmpass2800" -threads 2 -f avi -vtag DIVX -fflags +noodml -metadata title="KAAMELOTT_DVD1" -r 25 -vcodec mpeg4 -vb 2835000 -acodec copy -ab 64000 -s 720x576 -aspect 16:9 -deinterlace -y "C:\FILM\KAAMELOTT_DVD1.avi"'.
    FFmpeg version from svn, Copyright (c) 2000-2008 Fabrice Bellard, et al.

    NOTICE: This app contains changes made by SlySoft Inc. in compliance with GPL.
    All changes are available as patches from http://oss.slysoft.com

    This file was digitally signed by SlySoft Inc.

    FFmpeg maintainers receive SlySoft products free of charge. If you're
    interested then please contact us at support@slysoft.com


    Seems stream 0 codec frame rate differs from container frame rate: 50.00 (50/1) -> 25.00 (25/1)
    Input #0, cham, from 'pipe:':
    Duration: N/A, start: 0.000000, bitrate: 8948 kb/s
    Stream #0.0: Video: mpeg2video, yuv420p, 720x576 [PAR 64:45 DAR 16:9], 8500 kb/s, 25 tbr, 90k tbn, 50 tbc
    Stream #0.1: Audio: ac3, 48000 Hz, 5.1, s16, 448 kb/s
    [NULL @ 00f36de0]Unknown option 'vb'
    [swscaler @ 00f37d70]Unknown option 'vb'
    [avi @ 002f9e70]switching to no-odml mode
    Output #0, avi, to 'C:\FILM\KAAMELOTT_DVD1.avi':
    Stream #0.0: Video: mpeg4, yuv420p, 720x576 [PAR 64:45 DAR 16:9], q=2-31, pass 2, 2835 kb/s, 25 tbn, 25 tbc
    Stream #0.1: Audio: 0x2000, 48000 Hz, 5.1, s16, 448 kb/s
    Stream mapping:
    Stream #0.0 -> #0.0
    Stream #0.1 -> #0.1
    [NULL @ 002fae00]error, non monotone timestamps 1792 >= 0
    av_interleaved_write_frame(): Error while opening file
    This is Chameleon transcoder engine 0.9.12.27 [1.7.1.3] (12/27/2010)
    CLOCK RESET: Video, STC = 0, DTS = 22254
    CLOCK RESET: Audio AC3, STC = 0, PTS = 115854
    ----- NEW SEGMENT -----
    Segment Start: 1, Video:25854 Audio:115854 => 90000 (1000 ms)
    > Audio ++ :: - 2880 = 112974 (87120)
    > Audio ++ :: - 2880 = 110094 (84240)
    > Audio ++ :: - 2880 = 107214 (81360)
    > Audio ++ :: - 2880 = 104334 (78480)
    > Audio ++ :: - 2880 = 101454 (75600)
    > Audio ++ :: - 2880 = 98574 (72720)
    > Audio ++ :: - 2880 = 95694 (69840)
    > Audio ++ :: - 2880 = 92814 (66960)
    > Audio ++ :: - 2880 = 89934 (64080)
    > Audio ++ :: - 2880 = 87054 (61200)
    > Audio ++ :: - 2880 = 84174 (58320)
    > Audio ++ :: - 2880 = 81294 (55440)
    > Audio ++ :: - 2880 = 78414 (52560)
    > Audio ++ :: - 2880 = 75534 (49680)
    > Audio ++ :: - 2880 = 72654 (46800)
    > Audio ++ :: - 2880 = 69774 (43920)
    > Audio ++ :: - 2880 = 66894 (41040)
    > Audio ++ :: - 2880 = 64014 (38160)
    > Audio ++ :: - 2880 = 61134 (35280)
    > Audio ++ :: - 2880 = 58254 (32400)
    > Audio ++ :: - 2880 = 55374 (29520)
    > Audio ++ :: - 2880 = 52494 (26640)
    > Audio ++ :: - 2880 = 49614 (23760)
    > Audio ++ :: - 2880 = 46734 (20880)
    > Audio ++ :: - 2880 = 43854 (18000)
    > Audio ++ :: - 2880 = 40974 (15120)
    > Audio ++ :: - 2880 = 38094 (12240)
    > Audio ++ :: - 2880 = 35214 (9360)
    > Audio ++ :: - 2880 = 32334 (6480)
    > Audio ++ :: - 2880 = 29454 (3600)
    > Audio ++ :: - 2880 = 26574 (720)
    > Synchronized :: 25854 / 26574 => 720 = 8 ms
    Segment 1 > Video 0 > 0 / 25854 -> 29454 / 25854
    Segment 1 > Audio 0 > 0 / 26574 -> 29454 / 26574
    Segment 1 > Video 1 > 3600 / 29454 -> 33054 / 25854
    Segment 1 > Video 2 > 7200 / 33054 -> 36654 / 25854
    Segment 1 > Video 3 > 10800 / 36654 -> 40254 / 25854
    Segment 1 > Video 4 > 14400 / 40254 -> 43854 / 25854
    > Video is looking fine and synchronous, suppressing output
    Segment 1 > Audio 1 > 2880 / 118734 -> 121614 / 115854
    Segment 1 > Audio 2 > 5760 / 121614 -> 124494 / 115854
    Segment 1 > Audio 3 > 8640 / 124494 -> 127374 / 115854
    Segment 1 > Audio 4 > 11520 / 127374 -> 130254 / 115854
    Segment 1 > Audio 5 > 14400 / 130254 -> 133134 / 115854
    > Audio is looking fine and synchronous, suppressing output
    >>> QueueSend, #506 : ffmpeg terminated

    NB: j'ai modifié mon profil de conversion en ajoutant la dernière ligne:

    [* Generic (DivX) lossless]
    Res1=320x240
    Res2=480x360
    Res3=640x480
    Res4=720x540
    ResAna1=320x180
    ResAna2=480x270
    ResAna3=640x360
    ResAna4=720x404
    ResAna5=852x480
    AllowNativeTVResolution=1
    VTag=DIVX
    lavcopts=vcodec=mpeg4:acodec=copy
    Format=avi -noodml
    FileType=avi
    Quality=23
    useMencoder=1
    SubTitle=1
    MaxVBitrate=3000
     
  15. Lynx

    Lynx Moderator (fr)

    Regardes ce que j'ai moi dans cette option (rouge = en plus que toi)

    [* Generic (DivX)]
    Res1=320x240
    Res2=480x360
    Res3=640x480
    Res4=720x540
    ResAna1=320x180
    ResAna2=480x270
    ResAna3=640x360
    ResAna4=720x404
    ResAna5=852x480
    AllowNativeTVResolution=1
    VTag=DIVX
    mopts=-lameopts cbr:br=%abrate%
    lavcopts=vcodec=mpeg4
    moac=mp3lame
    Format=avi -noodml
    FileType=avi
    ARate=48000
    ABRate=128
    MVolume=10
    Quality=23
    useMencoder=1
    SubTitle=1
    MaxVBitrate=3000

    Essaies d'ajouter cette ligne pour voir.

    Amicalement
    Lynx
     
  16. bblinkfan

    bblinkfan Member

    Lynx,

    J'ai auparavant essayé cette option, de paramétrage en divx/mp3 en trois passes qui fonctionne parfaitement.

    j'ai rajouté à l'instant et essayé la ligne que tu proposais

    j'ai eu une esseur instantannément:

    le blocage vient donc bien de la copie du flux AC3
     
  17. Lynx

    Lynx Moderator (fr)

    Alors là je sèche, on va attendre la réponse de la partie anglaise que Pseudo a contacté.

    Si une idée me vient je te dirai.

    Amicalement
    Lynx
     
  18. pseudo555

    pseudo555 Moderator (fr)

    La seule autre piste serait de tenter de passer outre clonedvd mobile et d'appeler directement mencoder/ffshow afin de voir si le problème ne vient pas de "plus bas"...
     
  19. bblinkfan

    bblinkfan Member

    ok,, je vuex bien essayer cette solution, mais comment faire?
     
  20. pseudo555

    pseudo555 Moderator (fr)

    A mon avi, il faut avoir les programmes requis d'installer sur ton poste.

    Ensuite, tu "l'attaque" en ligne de commande avec l'option donné dans le log de clonedvd mobile, ce qui donne dans ton cas :

    Ou sinon, il faudrait directement contacter le support de ffmpeg (si il existe), pour voir si eux arrive a reproduire ce problème.