Downloaded 1.9.5.0 = errors twice in a row ripping

Discussion in 'CloneDVD mobile' started by cbh01, Sep 25, 2017.

  1. cbh01

    cbh01 New Member

    I am using AnyDVD 8.1.8.0 and Mobile 1.9.50 on Windows 10.

    Recently updated and twice in a row the Mobile app is giving me errors with two different movies.

    It is not AnyDVD b/c I ripped movie to ISO, then mounted w Virtual Clone Drive (5.5.0.0) and tried to convert using Mobile.

    Here's the log:

    This is Chameleon transcoder engine [2.0.1.5] (09/23/2013)

    LOG: [NEW SEGMENT] VOB:1 CELL:1
    LOG: Video Start PTS = 25257
    LOG: segment without audio, from 0 to 45045 (45045) ; increasing audio filler to 45045

    LOG: [NEW SEGMENT] VOB:2 CELL:1
    LOG: Video Start PTS = 25257
    LOG: AudioA Start PTS = 25257
    FFmpeg version from svn, Copyright (c) 2000-2008 Fabrice Bellard, et al.

    NOTICE: This app contains changes made by SlySoft Inc. in compliance with GPL.
    All changes are available as patches from http://oss.slysoft.com

    This file was digitally signed by SlySoft Inc.

    FFmpeg maintainers receive SlySoft products free of charge. If you're
    interested then please contact us at support@slysoft.com

    Input #0, cham, from 'pipe:':
    Duration: N/A, start: 0.000000, bitrate: 10248 kb/s
    Stream #0.0: Video: mpeg2video, yuv420p, 720x480 [PAR 32:27 DAR 16:9], 9800 kb/s, 59.94 tbr, 90k tbn, 59.94 tbc
    Stream #0.1: Audio: ac3, 48000 Hz, 5.1, s16, 448 kb/s
    Stream #0.2: Subtitle: dvdsub
    [NULL @ 00dd71b0]Unknown option 'vb'
    [swscaler @ 00f90050]Unknown option 'vb'
    [libx264 @ 01736500]using SAR=1/1
    [libx264 @ 01736500]frame MB size (80x45) > level limit (1620)
    [libx264 @ 01736500]DPB size (3 frames, 4147200 bytes) > level limit (2 frames, 3110400 bytes)
    [libx264 @ 01736500]MB rate (107892) > level limit (40500)
    [libx264 @ 01736500]using cpu capabilities: MMX2 SSE2Fast SSSE3 FastShuffle SSE4.2
    [libx264 @ 01736500]profile Baseline, level 3.0
    Output #0, ipod, to 'D:\Videos\IT_COMES_AT_NIGHT.m4v':
    Stream #0.0: Video: libx264, yuv420p, 1280x720 [PAR 1:1 DAR 16:9], q=2-31, 4860 kb/s, 30k tbn, 29.97 tbc
    Stream #0.1: Audio: libfaac, 48000 Hz, 2 channels, s16, 160 kb/s
     
  2. Ch3vr0n

    Ch3vr0n Translator NL & Mod

    Cdvdm is severely outdated and long overdue for an update. It is scheduled to receive one with the CloneBD encoding engine but no telling when that will be. The current release has several issues. You're likely for the moment better off with a different solution such as makemkv.

    Sent from my Nexus 6P with Tapatalk
     
  3. mmdavis

    mmdavis Well-Known Member

    Try to find and use version 1.2.0.1 and you won't have any problem. With AnyDVD running, you can convert straight from the disc, you don't have to rip first.