Have Problem On 3 Titles on DVD

Discussion in 'CloneDVD mobile' started by mmdavis, Oct 7, 2010.

  1. mmdavis

    mmdavis Well-Known Member

    Am trying to convert some of the Titles on the Operation Christmas Child DVD to mp4 using the "Microsoft xbox360 h264/AAC" option. Titles 5, 27, and 35 gave me the "Oh NO" using CDVDM 1.7.1.0. Those titles worked fine when I used CDVDM 1.2.0.1. Other titles I tried on the DVD worked fine using 1.7.1.0. I don't see what the differences would be with the different titles. The error is below.
    Code:
    WARNING: Video aspect ratio is given as 720:480[1.50] but encoded as 1.777778:1[1.78].
    DEBUG: Feeding ffmpeg.exe with 'ffmpeg.exe -i - -v 9 -xerror -threads 2 -f mp4 -metadata title="OCC" -r 30000/1001 -vcodec libx264 -vb 1923000 -vglobal 1 -coder ac -acodec libfaac -ac 2 -ab 128000 -s 720x480 -aspect 16:9 -deinterlace -level 0 -bf 0 -refs 5 -encoder_cfg level=3|nocabac|keyint=240|min-keyint=24|ref=3|mixed-refs|bframes=0|subme=6|no-ssim|no-psnr|me=umh|trellis=2|partitions=p8x8,b8x8,i4x4,i8x8|filter=-1,-1 -vol 1440 -y "D:\Program Files\SlySoft\CloneDVDmobile\OCC.mp4"'.
    This is Chameleon transcoder engine 0.9.9.27 [1.7.0.6] (9/27/2010)
    CLOCK RESET: Video, STC = 0, DTS = 24024
    CLOCK RESET: Audio AC3, STC = 0, PTS = 27027
    ----- NEW SEGMENT -----
    Segment Start: 1, Video:27027     Audio:27027     => 0 (0 ms)
    > Synchronized :: 27027 / 27027 => 0 = 0 ms
    Segment 1 > Video      0 >         0 /     27027 ->     30030 / 27027
    Segment 1 > Audio      0 >         0 /     27027 ->     29907 / 27027
    Segment 1 > Audio      1 >      2880 /     29907 ->     32787 / 27027
    Segment 1 > Video      1 >      3003 /     30030 ->     33033 / 27027
    Segment 1 > Video      2 >      6006 /     33033 ->     36036 / 27027
    Segment 1 > Video      3 >      9009 /     36036 ->     39039 / 27027
    Segment 1 > Video      4 >     12012 /     39039 ->     42042 / 27027
    > Video is looking fine and synchronous, suppressing output
    ----- AUDIO GARBAGE -----
    Segment 1 > Audio      2 >      5760 /     32787 ->     35667 / 27027
    Segment 1 > Audio      3 >      8640 /     35667 ->     38547 / 27027
    Location: ParseAudioAC3, #1041, V:14, A:4, S:0
    Reason:   __verify( CRC16(Data + 2, Size58 - 2) == 0 )
    Location: ParseAudioAC3, #1042, V:14, A:4, S:0
    Reason:   __verify( CRC16(Data + Size58, Size88 - Size58) == 0 )
    ----- AUDIO GARBAGE -----
    Segment 1 > Audio      4 >     11520 /     38547 ->     41427 / 27027
    Location: ParseAudioAC3, #1092, V:14, A:5, S:0
    Reason:   __verify( PTS == Stream.Clock )
    Location: ParseAudioAC3, #1092, V:14, A:5, S:0
    Reason:   __verify( PTS == Stream.Clock )
    Location: ParseAudioAC3, #1092, V:14, A:5, S:0
    Reason:   __verify( PTS == Stream.Clock )
    ----- AUDIO GARBAGE -----
    Segment 1 > Audio      5 >     14400 /     44307 ->     47187 / 29907
    Segment 1 > Audio      6 >     17280 /     47187 ->     50067 / 29907
    Segment 1 > Audio      7 >     20160 /     50067 ->     52947 / 29907
    Location: ParseAudioAC3, #1042, V:29, A:8, S:0
    Reason:   __verify( CRC16(Data + Size58, Size88 - Size58) == 0 )
    Location: ParseAudioAC3, #1092, V:29, A:8, S:0
    Reason:   __verify( PTS == Stream.Clock )
    ----- AUDIO GARBAGE -----
    Segment 1 > Audio      8 >     23040 /     52947 ->     55827 / 29907
    Location: ParseAudioAC3, #1092, V:29, A:9, S:0
    Reason:   __verify( PTS == Stream.Clock )
    ----- AUDIO GARBAGE -----
    Segment 1 > Audio      9 >     25920 /     58707 ->     61587 / 32787
    Location: ParseAudioAC3, #1041, V:29, A:10, S:0
    Reason:   __verify( CRC16(Data + 2, Size58 - 2) == 0 )
    Location: ParseAudioAC3, #1042, V:29, A:10, S:0
    Reason:   __verify( CRC16(Data + Size58, Size88 - Size58) == 0 )
    Location: ParseAudioAC3, #1092, V:29, A:10, S:0
    Reason:   __verify( PTS == Stream.Clock )
    ----- AUDIO GARBAGE -----
    Segment 1 > Audio     10 >     28800 /     61587 ->     64467 / 32787
    Location: ParseAudioAC3, #1092, V:29, A:11, S:0
    Reason:   __verify( PTS == Stream.Clock )
    Location: ParseAudioAC3, #1092, V:29, A:11, S:0
    Reason:   __verify( PTS == Stream.Clock )
    Location: ParseAudioAC3, #1092, V:29, A:11, S:0
    Reason:   __verify( PTS == Stream.Clock )
    ----- AUDIO GARBAGE -----
    Segment 1 > Audio     11 >     31680 /     67347 ->     70227 / 35667
    Segment 1 > Audio     12 >     34560 /     70227 ->     73107 / 35667
    Segment 1 > Audio     13 >     37440 /     73107 ->     75987 / 35667
    Location: ParseAudioAC3, #1042, V:29, A:14, S:0
    Reason:   __verify( CRC16(Data + Size58, Size88 - Size58) == 0 )
    Location: ParseAudioAC3, #1092, V:29, A:14, S:0
    Reason:   __verify( PTS == Stream.Clock )
    ----- AUDIO GARBAGE -----
    Segment 1 > Audio     14 >     40320 /     75987 ->     78867 / 35667
    Location: ParseAudioAC3, #1092, V:29, A:15, S:0
    Reason:   __verify( PTS == Stream.Clock )
    Location: ParseAudioAC3, #1092, V:29, A:15, S:0
    Reason:   __verify( PTS == Stream.Clock )
    Location: ParseAudioAC3, #1092, V:29, A:15, S:0
    Reason:   __verify( PTS == Stream.Clock )
    ----- AUDIO GARBAGE -----
    Segment 1 > Audio     15 >     43200 /     81747 ->     84627 / 38547
    Segment 1 > Audio     16 >     46080 /     84627 ->     87507 / 38547
    Segment 1 > Audio     17 >     48960 /     87507 ->     90387 / 38547
    Location: ParseAudioAC3, #1042, V:44, A:18, S:0
    Reason:   __verify( CRC16(Data + Size58, Size88 - Size58) == 0 )
    Location: ParseAudioAC3, #1092, V:44, A:18, S:0
    Reason:   __verify( PTS == Stream.Clock )
    ----- AUDIO GARBAGE -----
    Segment 1 > Audio     18 >     51840 /     90387 ->     93267 / 38547
    Location: ParseAudioAC3, #1092, V:44, A:19, S:0
    Reason:   __verify( PTS == Stream.Clock )
    ----- AUDIO GARBAGE -----
    Segment 1 > Audio     19 >     54720 /     96147 ->     99027 / 41427
    Location: ParseAudioAC3, #1041, V:44, A:20, S:0
    Reason:   __verify( CRC16(Data + 2, Size58 - 2) == 0 )
    Location: ParseAudioAC3, #1042, V:44, A:20, S:0
    Reason:   __verify( CRC16(Data + Size58, Size88 - Size58) == 0 )
    Location: ParseAudioAC3, #1092, V:44, A:20, S:0
    Reason:   __verify( PTS == Stream.Clock )
    ----- AUDIO GARBAGE -----
    Segment 1 > Audio     20 >     57600 /     99027 ->    101907 / 41427
    Location: ParseAudioAC3, #1092, V:44, A:21, S:0
    Reason:   __verify( PTS == Stream.Clock )
    Location: ParseAudioAC3, #1092, V:44, A:21, S:0
    Reason:   __verify( PTS == Stream.Clock )
    Location: ParseAudioAC3, #1092, V:44, A:21, S:0
    Reason:   __verify( PTS == Stream.Clock )
    ----- AUDIO GARBAGE -----
    Segment 1 > Audio     21 >     60480 /    104787 ->    107667 / 44307
    Segment 1 > Audio     22 >     63360 /    107667 ->    110547 / 44307
    Segment 1 > Audio     23 >     66240 /    110547 ->    113427 / 44307
    Location: ParseAudioAC3, #1042, V:44, A:24, S:0
    Reason:   __verify( CRC16(Data + Size58, Size88 - Size58) == 0 )
    Location: ParseAudioAC3, #1092, V:44, A:24, S:0
    Reason:   __verify( PTS == Stream.Clock )
    ----- AUDIO GARBAGE -----
    Segment 1 > Audio     24 >     69120 /    113427 ->    116307 / 44307
    Location: ParseAudioAC3, #1092, V:44, A:25, S:0
    Reason:   __verify( PTS == Stream.Clock )
    ----- AUDIO GARBAGE -----
    Segment 1 > Audio     25 >     72000 /    119187 ->    122067 / 47187
    Location: BufferFill, #607, V:60, A:26, S:0
    Reason:   __ensure( Stream.Write + Length <= Stream.Size )
    FFmpeg version from svn, Copyright (c) 2000-2008 Fabrice Bellard, et al.
    
    NOTICE: This app contains changes made by SlySoft Inc. in compliance with GPL.
            All changes are available as patches from http://oss.slysoft.com
    
            This file was digitally signed by SlySoft Inc.
    
            FFmpeg maintainers receive SlySoft products free of charge. If you're
            interested then please contact us at support@slysoft.com
    
    
    Seems stream 0 codec frame rate differs from container frame rate: 59.94 (60000/1001) -> 29.97 (30000/1001)
    Input #0, cham, from 'pipe:':
      Duration: N/A, start: 0.000000, bitrate: 7892 kb/s
        Stream #0.0: Video: mpeg2video, yuv420p, 720x480 [PAR 32:27 DAR 16:9], 7700 kb/s, 29.97 tbr, 90k tbn, 59.94 tbc
        Stream #0.1: Audio: ac3, 48000 Hz, stereo, s16, 192 kb/s
    [NULL @ 00cd6fb0]Unknown option 'vb'
    [swscaler @ 00cd7f40]Unknown option 'vb'
    [libx264 @ 002fa6c0]using SAR=32/27
    [libx264 @ 002fa6c0]using cpu capabilities: MMX2 SSE2Fast SSSE3 FastShuffle SSE4.1 Cache64
    [libx264 @ 002fa6c0]profile Baseline, level 3.0
    Output #0, mp4, to 'D:\Program Files\SlySoft\CloneDVDmobile\OCC.mp4':
        Stream #0.0: Video: libx264, yuv420p, 720x480 [PAR 32:27 DAR 16:9], q=2-31, 1923 kb/s, 30k tbn, 29.97 tbc
        Stream #0.1: Audio: libfaac, 48000 Hz, stereo, s16, 128 kb/s
    Stream mapping:
      Stream #0.0 -> #0.0
      Stream #0.1 -> #0.1
    [ac3 @ 00cdf8c0]frame CRC mismatch
    frame=   36 fps=  0 q=-1.0 Lsize=       3kB time=0.51 bitrate=  54.8kbits/s dup=0 drop=0    
    video:1kB audio:0kB global headers:1kB muxing overhead 50.881720%
        Last message repeated 3 times
    [libx264 @ 002fa6c0]slice I:1     Avg QP: 2.00  size:  1043
    [libx264 @ 002fa6c0]slice P:35    Avg QP: 3.37  size:    14
    [libx264 @ 002fa6c0]mb I  I16..4: 99.9%  0.0%  0.1%
    [libx264 @ 002fa6c0]mb P  I16..4:  0.0%  0.0%  0.0%  P16..4:  0.0%  0.0%  0.0%  0.0%  0.0%    skip:100.0%
    [libx264 @ 002fa6c0]final ratefactor: -12.61
    [libx264 @ 002fa6c0]coded y,uvDC,uvAC intra:0.0% 0.0% 0.0% inter:0.0% 0.0% 0.0%
    [libx264 @ 002fa6c0]kb/s:10.2
     

    Attached Files:

  2. mmdavis

    mmdavis Well-Known Member

    Hmmmm. Peer, Fernando, somebody?
     
  3. Fernando

    Fernando Redfox Development Team

    The AC3 audio stream is completely bogus. I'll check...
     
  4. mike20021969

    mike20021969 Well-Known Member

    I'm gonna try this on my thread...hey, it worked for you :D
     
  5. mmdavis

    mmdavis Well-Known Member

    OK. So why does it work with 1201 and not 170x/171x? It's the same disc and stream.
     
  6. mmdavis

    mmdavis Well-Known Member

    Can't Get Scorpion King to work with 1710

    Here is another one that doesn't work and it is not new. Used Microsoft Xbox 360 H264/AAC option, 720x408, 1 Pass, movie only. Version 1201 works fine. Why doesn't 1710?

    Code:
    DEBUG: Feeding ffmpeg.exe with 'ffmpeg.exe -i - -v 9 -xerror -threads 2 -f mp4 -metadata title="SCORPION_KING_WIDE" -r 30000/1001 -vcodec libx264 -vb 1979000 -vglobal 1 -coder ac -acodec libfaac -ac 2 -ab 128000 -s 720x405 -aspect 16:9 -deinterlace -level 0 -bf 0 -refs 5 -encoder_cfg level=3|nocabac|keyint=240|min-keyint=24|ref=3|mixed-refs|bframes=0|subme=6|no-ssim|no-psnr|me=umh|trellis=2|partitions=p8x8,b8x8,i4x4,i8x8|filter=-1,-1 -vol 810 -y "D:\Program Files\SlySoft\CloneDVDmobile\SCORPION_KING_WIDE.mp4"'.
    FFmpeg version from svn, Copyright (c) 2000-2008 Fabrice Bellard, et al.
    
    NOTICE: This app contains changes made by SlySoft Inc. in compliance with GPL.
            All changes are available as patches from http://oss.slysoft.com
    
            This file was digitally signed by SlySoft Inc.
    
            FFmpeg maintainers receive SlySoft products free of charge. If you're
            interested then please contact us at support@slysoft.com
    
    Input #0, cham, from 'pipe:':
      Duration: N/A, start: 0.000000, bitrate: 10248 kb/s
        Stream #0.0: Video: mpeg2video, yuv420p, 720x480 [PAR 32:27 DAR 16:9], 9800 kb/s, 59.94 tbr, 90k tbn, 59.94 tbc
        Stream #0.1: Audio: ac3, 48000 Hz, 5.1, s16, 448 kb/s
    [NULL @ 00d36c70]Unknown option 'vb'
    [swscaler @ 00d37c00]Unknown option 'vb'
    Frame size must be a multiple of 2
    This is Chameleon transcoder engine 0.9.9.27 [1.7.0.6] (9/27/2010)
    CLOCK RESET: Video, STC = 0, DTS = 15342
    CLOCK RESET: Audio AC3, STC = 0, PTS = 18345
    ----- NEW SEGMENT -----
    Segment Start: 1, Video:18345     Audio:18345     => 0 (0 ms)
    > Synchronized :: 18345 / 18345 => 0 = 0 ms
    Segment 1 > Video      0 >         0 /     18345 ->     21348 / 18345
    Segment 1 > Audio      0 >         0 /     18345 ->     21225 / 18345
    Segment 1 > Video      1 >      4504 /     22849 ->     25852 / 18344
    Segment 1 > Video      2 >      7507 /     25852 ->     28855 / 18344
    Segment 1 > Video      3 >     10510 /     28855 ->     31858 / 18344
    Segment 1 > Video      5 >     15015 /     33359 ->     36362 / 18344
    > Video is looking fine and synchronous, suppressing output
    Segment 1 > Audio      1 >      2880 /     21225 ->     24105 / 18345
    Segment 1 > Audio      2 >      5760 /     24105 ->     26985 / 18345
    Segment 1 > Audio      3 >      8640 /     26985 ->     29865 / 18345
    Segment 1 > Audio      4 >     11520 /     29865 ->     32745 / 18345
    > Audio is looking fine and synchronous, suppressing output
    >>> QueueSend, #506 : ffmpeg terminated
    
     

    Attached Files:

    Last edited: Oct 19, 2010