Batch Download - 1. Folge 5.1 Ton, Rest nur in Stereo

Discussion in 'AnyStream (de)' started by Bübchen, Dec 29, 2021.

  1. Bübchen

    Bübchen Member

    Hallo,

    ich hatte die Serie "The Expanse" im Batch Modus bei AP runtergeladen. Jetzt war mir dann doch mal aufgefallen das mir Plex als Ton nur Stereo anzeigt.
    Die erste Folge hatte 5.1 Ton, alle anderen nur noch Stereo. Die "Original" Dateien auf PC mit MediaInfo angesehen, tatsächlich, nur Stereo.
    Lade ich die Folgen einzeln, habe ich 5.1 Ton.

    Das war mit AnyStream 1.2.7, mit 1.2.8 ist es aber auch.

    Ist das bekannt?
     
  2. DeepSpace

    DeepSpace Well-Known Member

    Ja das ist schon seit einiger Zeit so, die Devs haben momentan mit den DRM Problemen auf Amz zu tun, es wird also noch ein Weilchen dauern.
     
    network likes this.
  3. network

    network Well-Known Member

    Es ist ratsam, momentan den Batch-Modus manuell mit Folgen zu füllen. D.h. Du wählst für jede einzelne Episode Bild und Ton aus, schickst diese hintereinander in die Warteschlange und die komplette Schlange wird dann ordentlich heruntergeladen.

    Falls Dir der Aufwand nicht zu groß ist, kannst Du Dir wie oben beschrieben nochmal die komplette Serie herunterladen und bei der Video-Auflösung die kleinste (400x224 Pixel) auswählen, dann wiegt das Video zu gut wie nix (im Beispiel unten 31 MB pro Episode).

    Danach musst Du nur noch das Originalvideo mit dem neuen 5.1 Sound zusammenfügen und schon hast Du das was Du wolltest.

    Das Muxen (Zusammenfügen) kannst Du übrigens per Kommandozeile automatisieren, bei Bedarf helfe ich Dir gerne. Geschätzter Zeitaufwand für die komplette Serie insgesamt 1 Stunde.

    Code:
    Video
    ID                                       : 1
    Format                                   : AVC
    Format/Info                              : Advanced Video Codec
    Format profile                           : Main@L2.2
    Format settings                          : CABAC / 5 Ref Frames
    Format settings, CABAC                   : Yes
    Format settings, Reference frames        : 5 frames
    Codec ID                                 : V_MPEG4/ISO/AVC
    Duration                                 : 51 min 40 s
    Bit rate                                 : 84.2 kb/s
    Width                                    : 400 pixels
    Height                                   : 224 pixels
    Display aspect ratio                     : 16:9
    Frame rate mode                          : Constant
    Frame rate                               : 23.976 (24000/1001) FPS
    Color space                              : YUV
    Chroma subsampling                       : 4:2:0
    Bit depth                                : 8 bits
    Scan type                                : Progressive
    Bits/(Pixel*Frame)                       : 0.039
    Stream size                              : 31.1 MiB (12%)
    Default                                  : Yes
    Forced                                   : No
    Color range                              : Limited
    Color primaries                          : BT.709
    Transfer characteristics                 : BT.709
    Matrix coefficients                      : BT.709
    
    Audio
    ID                                       : 2
    Format                                   : E-AC-3
    Format/Info                              : Enhanced AC-3
    Commercial name                          : Dolby Digital Plus
    Codec ID                                 : A_EAC3
    Duration                                 : 51 min 40 s
    Bit rate mode                            : Constant
    Bit rate                                 : 640 kb/s
    Channel(s)                               : 6 channels
    Channel layout                           : L R C LFE Ls Rs
    Sampling rate                            : 48.0 kHz
    Frame rate                               : 31.250 FPS (1536 SPF)
    Compression mode                         : Lossy
    Stream size                              : 237 MiB (88%)
    Language                                 : German
    Service kind                             : Complete Main
    Default                                  : Yes
    Forced                                   : No
    
     
    DeepSpace likes this.