1.0.5.0 still truncates audio on some episodes

Discussion in 'AnyStream' started by Mollenoh, Nov 1, 2020.

  1. Mollenoh

    Mollenoh Active Member

    Some episodes are still getting 16-17 seconds of sound chopped off before the end. For example, on Prime Video "Mortified" episodes 1, 8 and 11. Downloading the same episode again doesn't help, nor does selecting another soundtrack or video resolution.
     

    Attached Files:

  2. Kamala

    Kamala Well-Known Member

    I can confirm the same problem, happened to me with this video,which for,i have attached the log.
    Video is 44:01mins,and the audio cuts suddenly, during the end credits with a glitch at 43:30..
    I downloaded the video two times, and still the same problem.
     

    Attached Files:

  3. Prospere

    Prospere RedFox Development Team

    @Mollenoh @Kamala thanks a lot for your log files. I assume the problem only exists with Amazon downloads, is that correct?
     
  4. Mollenoh

    Mollenoh Active Member

    It can happen on Netflix too.

    The problem is not always noticeable by just playing the videos because of long silent dubbing credits after the play-out music has ended. That's the case with Mako Mermaids season 1 episodes 9 and 13. But if you examine the video properties, you can see that the soundtrack is significantly shorter than the video track.

    But with Mako Mermaids season 2 episode 12, the music is clearly chopped off before the end.
     

    Attached Files:

  5. Kamala

    Kamala Well-Known Member

    I don't know,cause i don't use netflix.
     
  6. Prospere

    Prospere RedFox Development Team

    @Mollenoh Thanks for the log! Taking care of it.
     
  7. gattopollo

    gattopollo Member

    i have the same problem on this : La Valla s01e04 where the audio is shorter than video
     

    Attached Files:

  8. Mollenoh

    Mollenoh Active Member

  9. gattopollo

    gattopollo Member

    same on la valla s01e03

    Format : MPEG-4
    Format profile : Base Media
    Codec ID : isom (isom/iso2/avc1/mp41/iso6/piff)
    File size : 2.79 GiB
    Duration : 58 min 42 s
    Overall bit rate mode : Variable
    Overall bit rate : 6 810 kb/s
    Movie name : I bambini smarriti
    Encoded date : UTC 2020-11-14 12:18:59
    Tagged date : UTC 2020-11-14 12:18:59
    Comment :
    Video
    ID : 1
    Format : AVC
    Format/Info : Advanced Video Codec
    Format profile : High@L4
    Format settings : CABAC / 4 Ref Frames
    Format settings, CABAC : Yes
    Format settings, Reference frames : 4 frames
    Codec ID : avc1
    Codec ID/Info : Advanced Video Coding
    Duration : 58 min 42 s
    Source duration : 1 min 26 s
    Bit rate mode : Variable
    Bit rate : 6 679 kb/s
    Maximum bit rate : 20.0 Mb/s
    Width : 1 920 pixels
    Height : 1 080 pixels
    Display aspect ratio : 16:9
    Frame rate mode : Constant
    Frame rate : 25.000 FPS
    Color space : YUV
    Chroma subsampling : 4:2:0
    Bit depth : 8 bits
    Scan type : Progressive
    Bits/(Pixel*Frame) : 0.129
    Stream size : 2.74 GiB (98%)
    Source stream size : 2.74 GiB (98%)
    Writing library : x264 core 148 r2721 6d200cf
    Encoding settings : cabac=1 / ref=4 / deblock=1:0:0 / analyse=0x3:0x111 / me=umh / subme=10 / psy=1 / psy_rd=1.00:0.00 / mixed_ref=1 / me_range=120 / chroma_me=1 / trellis=2 / 8x8dct=1 / cqm=0 / deadzone=21,11 / fast_pskip=1 / chroma_qp_offset=-2 / threads=8 / lookahead_threads=2 / sliced_threads=0 / nr=0 / decimate=1 / interlaced=0 / bluray_compat=0 / stitchable=1 / constrained_intra=0 / bframes=16 / b_pyramid=2 / b_adapt=2 / b_bias=0 / direct=3 / weightb=1 / open_gop=0 / weightp=2 / keyint=250 / keyint_min=126 / scenecut=0 / intra_refresh=0 / rc_lookahead=250 / rc=crf / mbtree=1 / crf=20.0 / qcomp=0.50 / qpmin=6 / qpmax=51 / qpstep=4 / vbv_maxrate=20000 / vbv_bufsize=25000 / crf_max=0.0 / nal_hrd=vbr / filler=0 / ip_ratio=1.40 / aq=1:0.80
    Encoded date : UTC 2020-11-14 12:18:59
    Tagged date : UTC 2020-11-14 12:18:59
    mdhd_Duration : 3522600
    Codec configuration box : avcC
    Audio
    ID : 2
    Format : E-AC-3
    Format/Info : Enhanced AC-3
    Commercial name : Dolby Digital Plus
    Codec ID : ec-3
    Duration : 58 min 1 s
    Source duration : 58 min 1 s
    Bit rate mode : Constant
    Bit rate : 128 kb/s
    Channel(s) : 2 channels
    Channel layout : L R
    Sampling rate : 48.0 kHz
    Frame rate : 31.250 FPS (1536 SPF)
    Compression mode : Lossy
    Stream size : 53.1 MiB (2%)
    Source stream size : 53.1 MiB (2%)
    Language : Italian
    Service kind : Complete Main
    Encoded date : UTC 2020-11-14 12:18:59
    Tagged date : UTC 2020-11-14 12:18:59
     

    Attached Files:

  10. 0x0x0x0x0

    0x0x0x0x0 Well-Known Member

    FYI, you can just give --Inform="General;%Duration%" as a parameter to mediainfo for container duration, "Video;%Duration%" for that of the video track, and "Audio;%Duration%" for audio ;-)

    Edit: that will give you times in milliseconds, if you want in human-readable format replace %Duration% with %Duration/String3%
     
    Last edited: Nov 14, 2020